Enable / Włącz Javascript
 Widok 
 Kategorie 
 Nitro Torrent w sieci 
 Top 10 użytkowników 
 300: Początek imperium - 300: Rise of an Empire *2014* [NEW SOURCE] [CAM] [XviD MP3-RARBG] [ENG]

300: Początek imperium - 300: Rise of an Empire *2014* [NEW SOURCE] [CAM] [XviD MP3-RARBG] [ENG]
Kategoria: » » »
Dodane: 03/10/2017
Rozmiar: 873.40 MB
Uploader: agat-spb.com❱ Wędrowiec
seed(ów): 0
leecher(ów): 0
Pobrane: -
Komentarzy: 0
Pobierz Torrent Pobierz Torrent
Pobierz [Magnet] Pobierz [Magnet]

Obserwuj
Raportuj
Tytuł: 300: Rise of an Empire
Polski Tytuł: 300: Początek imperium
====================

Ocena: IMDB - 7.1/10 (31.684), Filmweb - 6.9/10 (5.797)
Produkcja: USA
Gatunek: Akcja, Historyczny, Wojenny
Czas trwania: 102 min.
Premiera: 07.03.2014 - Polska, 05.03.2014 - Świat
Reżyseria: Noam Murro
Scenariusz: Kurt Johnstad, Zack Snyder


Po zwycięstwie nad oddziałami Leonidasa, wojska Xerxesa (Rodrigo Santoro) zmierzają w kierunku Aten. Mieszkańcy postanawiają, że obroną miasta będzie dowodził admirał Temistokles (Sullivan Stapleton). Ateńczycy razem z dawnym wrogiem, Spartą, szykują się do walki z największą armią świata. Ponadto Persowie chcą zaatakować nie tylko na lądzie, potężna flota pod dowództwem pięknej Artemizji (Eva Green) planuje zmieść w pył grecką marynarkę.


Sullivan Stapleton ... Temistokles
Eva Green ... Artemizja
Lena Headey ... Królowa Gorgo
Hans Matheson ... Aesyklos
Rodrigo Santoro ... Xerxes
Callan Mulvey ... Scyllias
David Wenham ... Dilios
Jack O'Connell ... Calisto


http://www.filmweb.pl/film/300%3A+Pocz%C4%85tek+imperium-2014-486130
http://fdb.pl/film/399733-300-poczatek-imperium
http://www.imdb.com/title/tt1253863/?ref_=hm_cht_t1


Info:
Format                                   : AVI
Format/Info                              : Audio Video Interleave
File size                                : 873 MiB
Duration                                 : 1h 33mn
Overall bit rate                         : 1 305 Kbps
Movie name                               : Downloaded from RARBG.COM
Writing application                      : Lavf55.34.100
Comment                                  : Downloaded from RARBG.COM

Video
ID                                       : 0
Format                                   : MPEG-4 Visual
Format profile                           : Advanced Simple@L5
Format settings, BVOP                    : 1
Format settings, QPel                    : No
Format settings, GMC                     : No warppoints
Format settings, Matrix                  : Default (H.263)
Codec ID                                 : XVID
Codec ID/Hint                            : XviD
Duration                                 : 1h 33mn
Bit rate                                 : 1 100 Kbps
Width                                    : 704 pixels
Height                                   : 304 pixels
Display aspect ratio                     : 2.35:1
Frame rate                               : 29.970 fps
Color space                              : YUV
Chroma subsampling                       : 4:2:0
Bit depth                                : 8 bits
Scan type                                : Progressive
Compression mode                         : Lossy
Bits/(Pixel*Frame)                       : 0.171
Stream size                              : 736 MiB (84%)
Writing library                          : Lavc55.52.102

Audio
ID                                       : 1
Format                                   : MPEG Audio
Format version                           : Version 1
Format profile                           : Layer 3
Mode                                     : Joint stereo
Mode extension                           : MS Stereo
Codec ID                                 : 55
Codec ID/Hint                            : MP3
Duration                                 : 1h 33mn
Bit rate mode                            : Constant
Bit rate                                 : 192 Kbps
Channel(s)                               : 2 channels
Sampling rate                            : 48.0 KHz
Compression mode                         : Lossy
Stream size                              : 128 MiB (15%)
Alignment                                : Aligned on interleaves
Interleave, duration                     : 24 ms (0.72 video frame)

Torrent downloaded from http://rarbg.com
Dostępne napisy
Brak napisów
Szczegóły torrenta
Tracker http://tracker.trackerfix.com:80/announce
Multitracker [ Pokaż ]
Kategoria: » » » [Zgłoś błąd]
Dodane 03-10-2017
Podziękowali:
0 użytkowników 
Podziękuj!
Pokaż / Ukryj pliki:
Nazwa pliku Rozmiar
300.Rise.Of.An.Empire.2014.NEW.SOURCE.CAM.XviD.MP3-RARBG.avi 873.40 MB
300.Rise.Of.An.Empire.2014.NEW.SOURCE.CAM.XviD.MP3-RARBG.nfo 3.18 KB
RARBG.com.txt 0.03 KB
3 plików
Brak komentarzy...
Power Rangers 2017 2160p 4K UHD 10bit HDR BluRay 7.1 x265 HEVC-MZABI | Malerei & Kalligraphie | Karl Lagerfeld Classic XXL 150 ml (keine 125 ml oder 100ml) Eau de Toilette EDT