Enable / Włącz Javascript
 Widok 
 Kategorie 
 Nitro Torrent w sieci 
 Top 10 użytkowników 
  300 Rise Of An Empire 300: Początek imperium *2014* [CAM] [x264] [AC3 TiTAN] [ENG]

300 Rise Of An Empire 300: Początek imperium *2014* [CAM] [x264] [AC3 TiTAN] [ENG]
Kategoria: » » »
Dodane: 03/10/2017
Rozmiar: 840.21 MB
Uploader: agat-spb.com❱ Wędrowiec
seed(ów): 0
leecher(ów): 0
Pobrane: -
Komentarzy: 0
Pobierz Torrent Pobierz Torrent
Pobierz [Magnet] Pobierz [Magnet]

Obserwuj
Raportuj
Tytuł: 300: Rise of an Empire / 300: Początek imperium
Ocena: IMDB - 7.2/10 (25.464), Filmweb - 6.9/10 (4.310)
Produkcja: USA
Gatunek: Akcja, Historyczny, Wojenny
Czas trwania: 102 min.
Premiera: 07.03.2014 - Polska, 05.03.2014 - Świat
Reżyseria: Noam Murro
Scenariusz: Kurt Johnstad, Zack Snyder

   


Po zwycięstwie nad oddziałami Leonidasa, wojska Xerxesa (Rodrigo Santoro) zmierzają w kierunku Aten. Mieszkańcy postanawiają, że obroną miasta będzie dowodził admirał Temistokles (Sullivan Stapleton). Ateńczycy razem z dawnym wrogiem, Spartą, szykują się do walki z największą armią świata. Ponadto Persowie chcą zaatakować nie tylko na lądzie, potężna flota pod dowództwem pięknej Artemizji (Eva Green) planuje zmieść w pył grecką marynarkę.



... Martin Rapold as Jürg
... Peter Freiburghaus as Karli
... Rebecca Indermaur as Fränzi
... Elia Bruelhart as Jonas
... Dominique Devenport as Toni
... Max Gertsch as Werner
... Barbara Terpoorten-Maurer as Andrea (as Barbara Terpoorten)
... Sara Capretti as Maya
... Nicolas Rosat as Dr. Bieri
... Ladislaus Löliger as Viehändler



Format version : Version 2
File size : 840 MiB
Duration : 1h 33mn
Overall bit rate mode : Variable
Overall bit rate : 1 256 Kbps
Encoded date : UTC 2014-03-11 13:19:22
Writing application : mkvmerge v6.8.0 ('Theme for Great Cities') 32bit built on Mar 2 2014 21:27:07
Writing library : libebml v1.3.0 + libmatroska v1.4.1

Video
ID : 1
Format : AVC
Format/Info : Advanced Video Codec
Format profile : High@L4.1
Format settings, CABAC : Yes
Format settings, ReFrames : 3 frames
Codec ID : V_MPEG4/ISO/AVC
Duration : 1h 33mn
Bit rate mode : Variable
Bit rate : 1 039 Kbps
Maximum bit rate : 40.0 Mbps
Width : 704 pixels
Height : 304 pixels
Display aspect ratio : 2.35:1
Frame rate mode : Constant
Frame rate : 29.970 fps
Color space : YUV
Chroma subsampling : 4:2:0
Bit depth : 8 bits
Scan type : Progressive
Bits/(Pixel*Frame) : 0.162
Stream size : 695 MiB (83%)
Writing library : x264 core 140 r2377 1ca7bb9
Default : Yes
Forced : No
Color primaries : BT.709
Transfer characteristics : BT.709
Matrix coefficients : BT.709

Audio
ID : 2
Format : AC-3
Format/Info : Audio Coding 3
Mode extension : CM (complete main)
Format settings, Endianness : Big
Codec ID : A_AC3
Duration : 1h 33mn
Bit rate mode : Constant
Bit rate : 192 Kbps
Channel(s) : 2 channels
Channel positions : Front: L R
Sampling rate : 48.0 KHz
Bit depth : 16 bits
Compression mode : Lossy
Stream size : 128 MiB (15%)
Default : Yes
Forced : No


Dostępne napisy
Brak napisów
Szczegóły torrenta
Tracker http://94.228.192.98/announce
Multitracker [ Pokaż ]
Kategoria: » » » [Zgłoś błąd]
Dodane 03-10-2017
Podziękowali:
0 użytkowników 
Podziękuj!
Pokaż / Ukryj pliki:
Nazwa pliku Rozmiar
300 Rise Of An Empire 2014 CAM x264 AC3 TiTAN.mkv 840.21 MB
300 Rise Of An Empire 2014 CAM x264 AC3 TiTAN.nfo 3.75 KB
Torrent Downloaded From ExtraTorrent.cc.txt 0.33 KB
3 plików
Brak komentarzy...
Education - 583 Words | The Memoirs of Sherlock Hol... | One Punch Man - 01 [English Dubbed] 720p x264 ~ARIZONE.mp4