Enable / Włącz Javascript
 Widok 
 Kategorie 
 Nitro Torrent w sieci 
 Top 10 użytkowników 
 Kobiety mafii - Sezon 1 [1080p.WEB-DL.H.264.AC3] [PL]

Kobiety mafii - Sezon 1 [1080p.WEB-DL.H.264.AC3] [PL] wielopaczka
Kategoria: » » » »
Dodane: 05/07/2018
Rozmiar: 21.85 GB
Uploader: Lukarusi (1)
seed(ów): 13
leecher(ów): 12
Pobrane: 501
Komentarzy: 0
Pobierz Torrent Pobierz Torrent
Pobierz [Magnet] Pobierz [Magnet]

Obserwuj
Raportuj
Info

produkcja: Polska
gatunek: Sensacyjny
reżyseria: Patryk Vega
scenariusz: Patryk Vega, Olaf Olszewski
zdjęcia: Mirosła Kuba Brożek, Norbert Modrzejewski
muzyka: Łukasz Targosz
czas trwania: ok. 39-47 min.

Opis

"Kobiety mafii" to serial rozszerzający fabułę filmu Patryka Vegi pod tym samym tytułem. Po brawurowo przeprowadzonej akcji agentka ABW, Bela, podejmuje się nowego zadania. Pracując pod przykrywką, zostaje "tajniakiem" w grupie przestępczej dowodzonej przez bossa warszawskiego półświatka, Padrino. Bohaterka wchodzi coraz głębiej w świat przestępców. Spotyka kolejnych członków grupy, z którymi zaczyna ją łączyć więź emocjonalna. Bela poznaje również kobiety, związane z groźnymi gangsterami. Wkrótce losy wszystkich z nich się przecinają. Panie muszą zacząć współpracować, aby przetrwać w bezwzględnym świecie bandytów.

Obsada

Olga Bołądź - "Bela"
Agnieszka Dygant - Daria "Niania"
Aleksandra Popławska - "Siekiera"
Katarzyna Warnke - "Spuchnięta Anka"
Julia Wieniawa-Narkiewicz - "Futro"
Sebastian Fabijański - "Cieniu"
Piotr Stramowski - "Żywy"
Bogusław Linda - "Padrino"
Tomasz Oświeciński - "Milimetr"
Janusz Chabior - Adam

Dane Techniczne

Format : Matroska
Format version : Version 4 / Version 2
File size : 4.01 GiB
Duration : 47 min 7 s
Overall bit rate mode : Variable
Overall bit rate : 12.2 Mb/s
Encoded date : UTC 2018-06-13 15:55:47

Video
ID : 1
Format : AVC
Format/Info : Advanced Video Codec
Format profile : High@L4
Format settings : CABAC / 4 Ref Frames
Format settings, CABAC : Yes
Format settings, ReFrames : 4 frames
Codec ID : V_MPEG4/ISO/AVC
Duration : 47 min 7 s
Bit rate mode : Variable
Bit rate : 11.8 Mb/s
Maximum bit rate : 15.0 Mb/s
Width : 1 920 pixels
Height : 800 pixels
Display aspect ratio : 2.35:1
Frame rate mode : Constant
Frame rate : 29.970 (30000/1001) FPS
Color space : YUV
Chroma subsampling : 4:2:0
Bit depth : 8 bits
Scan type : Progressive
Bits/(Pixel*Frame) : 0.256
Stream size : 3.88 GiB (97%)
Color range : Limited
Color primaries : BT.709
Transfer characteristics : BT.709
Matrix coefficients : BT.709

Audio
ID : 2
Format : AC-3
Format/Info : Audio Coding 3
Codec ID : A_AC3
Duration : 47 min 7 s
Bit rate mode : Constant
Bit rate : 384 kb/s
Channel(s) : 2 channels
Channel positions : Front: L R
Sampling rate : 48.0 kHz
Frame rate : 31.250 FPS (1536 SPF)
Bit depth : 16 bits
Compression mode : Lossy
Stream size : 129 MiB (3%)
Language : Polish
Service kind : Complete Main
Default : Yes
Forced : Yes

Text
ID : 3
Format : UTF-8
Codec ID : S_TEXT/UTF8
Codec ID/Info : UTF-8 Plain Text
Duration : 45 min 21 s
Bit rate : 36 b/s
Count of elements : 480
Stream size : 12.0 KiB (0%)
Language : English
Default : No
Forced : No
Dostępne napisy
Brak napisów
Szczegóły torrenta
Tracker http://tracker.vanitycore.co:6969/announce
Multitracker [ Pokaż ]
Kategoria: » » » » [Zgłoś błąd]
Dodane 05-07-2018
Podziękowali:
0 użytkowników 
Podziękuj!
Pokaż / Ukryj pliki:
Nazwa pliku Rozmiar
Kobiety mafii S01E01 - Mundial [1080p.WEB-DL.H.264.AC3] [PL].mkv 3.37 GB
Kobiety mafii S01E02 - Masz minutę [1080p.WEB-DL.H.264.AC3] [PL].mkv 3.45 GB
Kobiety mafii S01E03 - Hokus Pokus [1080p.WEB-DL.H.264.AC3] [PL].mkv 4.01 GB
Kobiety mafii S01E04 - A gdzie jest Dania?[1080p.WEB-DL.H.264.AC3] [PL].mkv 3.57 GB
Kobiety mafii S01E05 - Zmiana warty [1080p.WEB-DL.H.264.AC3] [PL].mkv 3.71 GB
Kobiety mafii S01E06 - Tego chcesz?[1080p.WEB-DL.H.264.AC3] [PL].mkv 3.74 GB
6 plików
Brak komentarzy...
HD Time Trap | Electric Slide | Audi A1 S-LINE