Enable / Włącz Javascript
 Widok 
 Kategorie 
 Nitro Torrent w sieci 
 Top 10 użytkowników 
 Rojst S01E04-05 [720p.WEB-DL.H.264.AC3] [PL]

Rojst S01E04-05 [720p.WEB-DL.H.264.AC3] [PL]
Kategoria: » » » »
Dodane: 15/09/2018
Rozmiar: 3.91 GB
Uploader: Lukarusi (1)
seed(ów): 19
leecher(ów): 19
Pobrane: 188
Komentarzy: 0
Pobierz Torrent Pobierz Torrent
Pobierz [Magnet] Pobierz [Magnet]

Obserwuj
Raportuj
Info

produkcja: Polska
gatunek: Kryminalny
reżyseria: Jan Holoubek
scenariusz: Kasper Bajon, Jan Holoubek
zdjęcia: Bartłomiej Kaczmarek
muzyka: Jan Komar
czas trwania: ok. 48-50 min.

Opis

Miasteczkiem wstrząsa brutalne podwójne morderstwo. ?Kurier? przekazuje tę sprawę doświadczonemu dziennikarzowi, Witoldowi Wanyczowi. Równocześnie dowiaduje się on o tajemniczym samobójstwie dwójki nastolatków. Wraz z Piotrem, młodym dziennikarzem, rozpoczynają własne śledztwo.

Obsada

Andrzej Seweryn - Witold Wanycz
Dawid Ogrodnik - Piotr Zarzycki
Magdalena Walach - Helena Grochowiak
Zofia Wichłacz - Teresa
Agnieszka Żulewska - Nadia

Dane Techniczne

Format : Matroska
Format version : Version 4 / Version 2
File size : 1.92 GiB
Duration : 48 min 26 s
Overall bit rate mode : Variable
Overall bit rate : 5 671 kb/s
Encoded date : UTC 2018-09-15 07:29:24

Video
ID : 1
Format : AVC
Format/Info : Advanced Video Codec
Format profile : High@L3.1
Format settings : CABAC / 5 Ref Frames
Format settings, CABAC : Yes
Format settings, ReFrames : 5 frames
Codec ID : V_MPEG4/ISO/AVC
Duration : 48 min 26 s
Bit rate mode : Variable
Bit rate : 5 285 kb/s
Maximum bit rate : 8 000 kb/s
Width : 1 280 pixels
Height : 540 pixels
Display aspect ratio : 2.40:1
Frame rate mode : Constant
Frame rate : 29.970 (30000/1001) FPS
Color space : YUV
Chroma subsampling : 4:2:0
Bit depth : 8 bits
Scan type : Progressive
Bits/(Pixel*Frame) : 0.255
Stream size : 1.79 GiB (93%)
Color range : Limited
Color primaries : BT.709
Transfer characteristics : BT.709
Matrix coefficients : BT.709

Audio
ID : 2
Format : AC-3
Format/Info : Audio Coding 3
Codec ID : A_AC3
Duration : 48 min 26 s
Bit rate mode : Constant
Bit rate : 384 kb/s
Channel(s) : 2 channels
Channel positions : Front: L R
Sampling rate : 48.0 kHz
Frame rate : 31.250 FPS (1536 SPF)
Bit depth : 16 bits
Compression mode : Lossy
Stream size : 133 MiB (7%)
Language : Polish
Service kind : Complete Main
Default : Yes
Forced : Yes

Text
ID : 3
Format : UTF-8
Codec ID : S_TEXT/UTF8
Codec ID/Info : UTF-8 Plain Text
Duration : 46 min 3 s
Bit rate : 36 b/s
Count of elements : 426
Stream size : 12.4 KiB (0%)
Language : English
Default : No
Forced : No
Dostępne napisy
Brak napisów
Szczegóły torrenta
Tracker http://tracker.vanitycore.co:6969/announce
Multitracker [ Pokaż ]
Kategoria: » » » » [Zgłoś błąd]
Dodane 15-09-2018
Podziękowali:
0 użytkowników 
Podziękuj!
Pokaż / Ukryj pliki:
Nazwa pliku Rozmiar
Rojst S01E04 [720p.WEB-DL.H.264.AC3] [PL].mkv 1.92 GB
Rojst S01E05 [720p.WEB-DL.H.264.AC3] [PL].mkv 1.99 GB
2 plików
Brak komentarzy...
3466 افلام تركي 2017 HDTV 4.2 رعب فيلم Deccal 2 2017 مترجم اون لاين مشاهدة وتحميل فيلم الرعب التركي Deccal 2 2017 مترجم كامل اون لاين وتحميل مباشر بجوده... | F is for Family | Mobile Suit Gundam AGE: Memory of Eden OVA Episode 1 English Subbed