Enable / Włącz Javascript
 Widok 
 Kategorie 
 Nitro Torrent w sieci 
 Top 10 użytkowników 
 Ślepnąc od świateł - Sezon 1 [1080p.WEB-DL.H.264.AC3] [PL]

Ślepnąc od świateł - Sezon 1 [1080p.WEB-DL.H.264.AC3] [PL] wielopaczka
Kategoria: » » » »
Dodane: 12/11/2018
Rozmiar: 26.65 GB
Uploader: Lukarusi (1)
seed(ów): 20
leecher(ów): 104
Pobrane: 716
Komentarzy: 0
Pobierz Torrent Pobierz Torrent
Pobierz [Magnet] Pobierz [Magnet]

Obserwuj
Raportuj
Info

produkcja: PL
gatunek: Kryminał
reżyseria: Krzysztof Skonieczny
scenariusz: Krzysztof Skonieczny, Jakub Żulczyk
zdjęcia: Michał Englert
muzyka: Marcin Masecki
czas trwania: ok. 54-60 min.

Opis

Kuba to znany warszawski diler. Jest perfekcjonistą i outsiderem. Lubi mieć wszystko pod kontrolą ? włącznie ze swoim dokładnie przemyślanym i zaplanowanym wizerunkiem. Jest zagadką dla otoczenia ? to, co widzą inni to jedynie przystojna twarz, drogie ubrania, dobry samochód. Nikt nie wie o nim zbyt wiele, za to on zna bardzo wielu.

Obsada

Kamil Nożyński - Kuba Nitecki
Jan Frycz - "Dario"
Robert Więckiewicz - Jacek
Janusz Chabior - Władek "Stryj"
Marta Malikowska - Maria Pazińska "Pazina"
Cezary Pazura - Mariusz Fajkowski
Marzena Pokrzywińska - Paulina
Eryk Lubos - Marek Żakowski
Jacek Beler - Bartek "Sikor"

Dane Techniczne

Format : Matroska
Format version : Version 4 / Version 2
File size : 3.44 GiB
Duration : 59 min 58 s
Overall bit rate mode : Variable
Overall bit rate : 8 200 kb/s
Encoded date : UTC 2018-11-12 17:44:51

Video
ID : 1
Format : AVC
Format/Info : Advanced Video Codec
Format profile : High@L4
Format settings : CABAC / 4 Ref Frames
Format settings, CABAC : Yes
Format settings, ReFrames : 4 frames
Codec ID : V_MPEG4/ISO/AVC
Duration : 59 min 58 s
Bit rate mode : Variable
Bit rate : 7 814 kb/s
Maximum bit rate : 12.0 Mb/s
Width : 1 920 pixels
Height : 1 080 pixels
Display aspect ratio : 16:9
Frame rate mode : Constant
Frame rate : 25.000 FPS
Color space : YUV
Chroma subsampling : 4:2:0
Bit depth : 8 bits
Scan type : Progressive
Bits/(Pixel*Frame) : 0.151
Stream size : 3.27 GiB (95%)
Default : Yes
Forced : Yes
Color range : Limited
Color primaries : BT.709
Transfer characteristics : BT.709
Matrix coefficients : BT.709

Audio
ID : 2
Format : AC-3
Format/Info : Audio Coding 3
Codec ID : A_AC3
Duration : 59 min 58 s
Bit rate mode : Constant
Bit rate : 384 kb/s
Channel(s) : 2 channels
Channel positions : Front: L R
Sampling rate : 48.0 kHz
Frame rate : 31.250 FPS (1536 SPF)
Bit depth : 16 bits
Compression mode : Lossy
Stream size : 165 MiB (5%)
Language : Polish
Service kind : Complete Main
Default : Yes
Forced : Yes

Text
ID : 3
Format : UTF-8
Codec ID : S_TEXT/UTF8
Codec ID/Info : UTF-8 Plain Text
Duration : 59 min 39 s
Bit rate : 55 b/s
Count of elements : 751
Stream size : 24.2 KiB (0%)
Language : Polish
Default : No
Forced : No
Dostępne napisy
Brak napisów
Szczegóły torrenta
Tracker http://tracker.vanitycore.co:6969/announce
Multitracker [ Pokaż ]
Kategoria: » » » » [Zgłoś błąd]
Dodane 12-11-2018
Podziękowali:
4 użytkowników 
[ Pokaż ]
Podziękuj!
Pokaż / Ukryj pliki:
Nazwa pliku Rozmiar
Ślepnąc od świateł S01E01 [1080p.WEB-DL.H.264.AC3] [PL].mkv 3.44 GB
Ślepnąc od świateł S01E02 [1080p.WEB-DL.H.264.AC3] [PL].mkv 3.15 GB
Ślepnąc od świateł S01E03 [1080p.WEB-DL.H.264.AC3] [PL].mkv 3.41 GB
Ślepnąc od świateł S01E04 [1080p.WEB-DL.H.264.AC3] [PL].mkv 3.29 GB
Ślepnąc od świateł S01E05 [1080p.WEB-DL.H.264.AC3] [PL].mkv 3.08 GB
Ślepnąc od świateł S01E06 [1080p.WEB-DL.H.264.AC3] [PL].mkv 3.45 GB
Ślepnąc od świateł S01E07 [1080p.WEB-DL.H.264.AC3] [PL].mkv 3.41 GB
Ślepnąc od świateł S01E08 [1080p.WEB-DL.H.264.AC3] [PL].mkv 3.41 GB
8 plików
Brak komentarzy...
डाउनलोड APK | Prison Break S05E06 FRENCH HDTV | first man